Game Of Thrones S07E02 1080p WEB H264-TBS

Torrent Details

Game of Thrones S07E02 1080p WEB h264<font color=#ccc>-TBS</font>

NAME
Game of Thrones S07E02 1080p WEB h264-TBS.torrent
CATEGORY
Television
INFOHASH
f3f6846a99a9dcee9a96d001d504836f97473130
SIZE
1.5 GB in 2 files
ADDED
Uploaded on 24-07-2017 by our crawler pet called "Spidey".
SWARM
1284 seeders & 193 peers
RATING
No votes yet.

Please login to vote for this torrent.


Description

Game.of.Thrones.S07E02.1080p.WEB.h264-TBS



Complete name : game.of.thrones.s07e02.1080p.web.h264-tbs.mkv
Format : Matroska
Format version : Version 4 / Version 2
File size : 1.54 GiB
Duration : 59 min 15 s
Overall bit rate mode : Variable
Overall bit rate : 3 727 kb/s
Encoded date : UTC 2017-07-24 01:21:58
Writing application : mkvmerge v8.8.0 ('Wind at my back') 64bit
Writing library : libebml v1.3.3 + libmatroska v1.4.4 / Lavf57.25.100

Video
ID : 1
Format : AVC
Format/Info : Advanced Video Codec
Format profile : [email protected]/* */
Format settings, CABAC : Yes
Format settings, ReFrames : 4 frames
Codec ID : V_MPEG4/ISO/AVC
Duration : 59 min 15 s
Bit rate mode : Variable
Bit rate : 3 536 kb/s
Maximum bit rate : 4 510 kb/s
Width : 1 920 pixels
Height : 1 080 pixels
Display aspect ratio : 16:9
Frame rate mode : Constant
Frame rate : 23.976 (24000/1001) FPS
Color space : YUV
Chroma subsampling : 4:2:0
Bit depth : 8 bits
Scan type : Progressive
Bits/(Pixel*Frame) : 0.071
Stream size : 1.46 GiB (95%)
Default : Yes
Forced : No

Audio
ID : 2
Format : AAC
Format/Info : Advanced Audio Codec
Format profile : LC
Codec ID : A_AAC
Duration : 59 min 15 s
Bit rate : 192 kb/s
Channel(s) : 2 channels
Channel positions : Front: L R
Sampling rate : 48.0 kHz
Frame rate : 46.875 FPS (1024 spf)
Compression mode : Lossy
Delay relative to video : -41 ms
Stream size : 80.3 MiB (5%)
Default : Yes
Forced : No



Discussion

Comments 0

Post Your Comment

Files in this torrent

FILENAMESIZE
game.of.thrones.s07e02.1080p.web.h264-tbs.mkv1.5 GB
game.of.thrones.s07e02.1080p.web.x264-tbs.nfo52 B

Alternative Torrents for 'game of thrones h'.

TORRENT NAME SIZE SEEDS PEERS
3.6 GB 1565 229
3.3 GB 1151 120
1.2 GB 972 31
3.5 GB 644 97
1.2 GB 593 54
3 GB 232 31
1.2 GB 129 18
570 MB 88 6
3.5 GB 72 11
3.7 GB 52 10
3.3 GB 34 5
1.2 GB 26 7
3.3 GB 15 9
1.2 GB 14 6
570 MB 14 8